test [欧美][科幻][星际特工:千星之城(美版)][HD-MP4▓2.55G][英语中字][1080P][2017最新科幻]高清下载 [欧美][科幻][星际特工:千星之城(美版)][HD-MP4▓2.55G][英语中字][1080P][2017最新科幻]迅雷电影下载 [欧美][科幻][星际特工:千星之城(美版)][HD-MP4▓2.55G][英语中字][1080P][2017最新科幻]电影下载-光影资源联盟
网站导航|设为主页|加入收藏 首页|影视|动漫|音乐|软件|游戏|其他
首页>>>>星际特工:千星之城下载

[欧美][科幻][星际特工:千星之城(美版)][HD-MP4▓2.55G][英语中字][1080P][2017最新科幻]

中文名:[欧美][科幻][星际特工:千星之城(美版)][HD-MP4▓2.55G][英语中字][1080P][2017最新科幻]

发布时间:2017-11-21 23:11

分类:

简介:



◎译  名 星际特工:千星之城/瓦莱里安与一千颗行星的城市/瓦莱里安与千星之城/星际特工瓦雷诺:千星之城(台)
◎片  名 Valérian and the City of a Thousand Planets
◎年  代 2017
◎国  家 法国/中国/比利时/德国/阿联酋/美国/英国/加拿大
◎类  别 动作/冒险/奇幻 
◎语  言 英语
◎字  幕 韩文
◎IMDb评分 6.7/10 from 41,892 users
◎IMDb链接 http://www.imdb.com/title/tt2239822
◎文件格式 x264 + AAC
◎视频尺寸 1280x536
◎文件大小 3.54 GiB
◎片  长 2 h 16 min
◎导  演 吕克·贝松 Luc Besson
◎主  演 戴恩·德哈恩 Dane DeHaan
      卡拉·迪瓦伊 Cara Delevingne
      克里夫·欧文 Clive Owen
      蕾哈娜 Rihanna
      伊桑·霍克 Ethan Hawke
      赫比·汉考克 Herbie Hancock
      吴亦凡 Kris Wu
      萨姆·斯普卢尔 Sam Spruell
      阿兰·夏巴 Alain Chabat
      鲁特格尔·哈尔 Rutger Hauer
      泽维尔·吉亚诺利 Xavier Giannoli
      约翰·古德曼 John Goodman
      山姆·道格拉斯 Sam Douglas

◎简  介

  故事设定在28世纪,人类发现了如何进行时空旅行。韦勒瑞恩(戴恩·德哈恩 饰)和洛瑞琳(卡拉·迪瓦伊 饰)是“时空服务”的特工,负责保护地球帝国的行星。他们像往常一样执行着星际任务,但在执行一次任务时,他们偶然发现了一个秘密,而他们也被卷入其中,越陷越深……

花簇

.作为一名“视觉控”,导演吕克·贝松在打造视效上绝不手软,豪掷2.1亿美金构造出一个28世纪人类与3000多种外星生物共荣共存的宇宙空间站——阿尔法星城。

.3236个外星种族、5000种通用语言、2000万太空居民,长达千年的编年史构成一个庞大复杂的神奇宇宙。

.片中不仅场景诱人,3000多种外星生物的展现也令人叹为观止。除了少数由真人扮演的外星人以外,电影里更多外星人是通过CG特效来制作呈现。

.为了逼真的视觉效果,电影的特效制作部分邀请全球三大顶级特效公司维塔数码、工业光魔和Rodeo FX三个顶配团队首次联手,为影片制作出2700多个特效镜头,比当年的《阿凡达》还多700个特效镜头。

.该片耗资高达2.1亿美金,拥有2734个特效镜头,相当于每秒钟烧掉约18万元人民币。

.电影改编自法国经典IP系列漫画。

Video
ID                                       : 1
Format                                   : AVC
Format/Info                              : Advanced Video Codec
Format profile                           : High@L4.1
Format settings, CABAC                   : Yes
Format settings, ReFrames                : 4 frames
Codec ID                                 : avc1
Codec ID/Info                            : Advanced Video Coding
Duration                                 : 2 h 16 min
Bit rate                                 : 3 500 kb/s
Width                                    : 1 280 pixels
Height                                   : 536 pixels
Display aspect ratio                     : 2.40:1
Frame rate mode                          : Constant
Frame rate                               : 23.976 (24000/1001) FPS
Color space                              : YUV
Chroma subsampling                       : 4:2:0
Bit depth                                : 8 bits
Scan type                                : Progressive
Bits/(Pixel*Frame)                       : 0.213
Stream size                              : 3.32 GiB (94%)
Title                                    : Valerian.and.the.City.of.a.Thousand.Planets.2017.720p.KORSUB.HDRip.x264.AAC2.0-STUTTERSHIT
Writing library                          : x264 core 148 r2795M aaa9aa8
Encoding settings                        : cabac=1 / ref=4 / deblock=1:0:0 / analyse=0x3:0x113 / me=umh / subme=8 / psy=1 / psy_rd=1.00:0.00 / mixed_ref=1 / me_range=16 / chroma_me=1 / trellis=2 / 8x8dct=1 / cqm=0 / deadzone=21,11 / fast_pskip=1 / chroma_qp_offset=-2 / threads=40 / lookahead_threads=4 / sliced_threads=0 / nr=0 / decimate=1 / interlaced=0 / bluray_compat=0 / constrained_intra=0 / bframes=3 / b_pyramid=2 / b_adapt=2 / b_bias=0 / direct=3 / weightb=1 / open_gop=0 / weightp=2 / keyint=250 / keyint_min=23 / scenecut=40 / intra_refresh=0 / rc_lookahead=50 / rc=abr / mbtree=1 / bitrate=3500 / ratetol=1.0 / qcomp=0.60 / qpmin=0 / qpmax=69 / qpstep=4 / ip_ratio=1.40 / aq=1:1.00

Audio
ID                                       : 2
Format                                   : AAC
Format/Info                              : Advanced Audio Codec
Format profile                           : LC
Codec ID                                 : 40
Duration                                 : 2 h 16 min
Bit rate mode                            : Constant
Bit rate                                 : 224 kb/s
Channel(s)                               : 2 channels
Channel positions                        : Front: L R
Sampling rate                            : 48.0 kHz
Frame rate                               : 46.875 FPS (1024 spf)
Compression mode                         : Lossy
Stream size                              : 219 MiB (6%)
Title                                    : Valerian.and.the.City.of.a.Thousand.Planets.2017.720p.KORSUB.HDRip.x264.AAC2.0-STUTTERSHIT
Default                                  : Yes
Alternate group                          : 1







【下载地址】

资源名称(您可以点击这些文件名进行下载.)          大小    速度

全选 复制选中的链接本站最新下载方式

发 布 人:hd62

网站名称:老鸟家园

网  址:http://bbs.hd62.com

Copyright@2008-2011 www.etdown.net. All Rights Reserved.   沪ICP备16043169号-1

光影资源联盟 疯狗下载 电影下载 最新电影下载

本站仅为网友提供交流的信息平台,所有资源的实际文件,都不在本站的服务器上,而是网友用自己的电脑自发共享的,更不保证文字描述和实际内容相符,发布的信息来自国内各资源站,本站只是由程序自动收集其发布的信息,如果您认为有关发布信息侵犯了您的版权,请及时举报,我们将尽快为您处理。追究版权及相关责任请直接与原发布网站的发布者联系,本站将近最大努力过滤政治和色情的内容,如发现一律封IP。取保问题请到举报贴。